Amenaza Roja(Red Dawn) BDRip 720p Español LATiNO/Ingles DTS Sub 2012 Bélico

  • PELICULAS Y SERIES | HACE 1 AñO
Amenaza RojaRed Dawn BDRip 720p Dvdrip Latino 1 Link, Descargar Amenaza RojaRed Dawn BDRip 720p 1 link Mega, Amenaza RojaRed Dawn BDRip 720p DVD Full Latino peliculasyonkis, Amenaza RojaRed Dawn BDRip 720p Cuevana.tv, Amenaza RojaRed Dawn BDRip 720p pelicula completa, Amenaza RojaRed Dawn BDRip 720p HD 1080P 720P Buena Calidad putlocker, Amenaza RojaRed Dawn BDRip 720p latino HD Taringa, Amenaza RojaRed Dawn BDRip 720p Bluray Brrip 1 Link, Amenaza RojaRed Dawn BDRip 720p Español Gratis, Amenaza RojaRed Dawn BDRip 720p Torrent Español

Amenaza Roja(Red Dawn)[BDRip 720p][Español LATiNO/Ingles DTS][Sub][2012][Bélico]

Ficha Técnica

Red Dawn
Amanecer Rojo
AÑO: 2012
DURACIÓN: 93 min.
PAÍS: Estados Unidos
DIRECTOR: Dan Bradley
GUIÓN: Carl Ellsworth, Jeremy Passmore (Remake: Kevin Reynolds, John Milius)
MÚSICA: Ramin Djawadi
FOTOGRAFÍA: Mitchell Amundsen
REPARTO: Chris Hemsworth, Adrianne Palicki, Josh Hutcherson, Josh Peck, Isabel Lucas, Jeffrey Dean Morgan, Connor Cruise, Edwin Hodge, Alyssa Diaz, Brett Cullen, Michael Beach, Will Yun Lee, Matt Gerald, Kenneth Choi, Ron Yuan
PRODUCTORA: Contrafilm / Vincent Newman Entertainment
PREMIOS: 2012: Premios Razzie: Nominada a Peor precuela, remake, copia o secuela
GÉNERO: Acción. Bélico. Ciencia ficción | Remake
Sinopsis
Remake de la película homónima dirigida en 1984 por John Milius, con Patrick Swayze en el papel principal.
Datos Técnicos


Cómenzar Descarga 1 Link



General Format : Matroska Format version : Version 2 File size : 5.20 GiB Duration : 1h 33mn Overall bit rate : 7 980 Kbps Movie name : CadagotoHD.Com ¡Visítanos! Encoded date : UTC 2013-03-08 21:12:42 Writing application : mkvmerge v3.4.0 ('Rapunzel') built on May 15 2010 09:38:20 Writing library : libebml v0.8.0 + libmatroska v0.9.0 Video ID : 1 Format : AVC Format/Info : Advanced Video Codec Format profile : High@L4.1 Format settings, CABAC : Yes Format settings, ReFrames : 5 frames Codec ID : V_MPEG4/ISO/AVC Duration : 1h 33mn Bit rate : 6 120 Kbps Nominal bit rate : 6 500 Kbps Width : 1 280 pixels Height : 534 pixels Display aspect ratio : 2.40:1 Frame rate mode : Constant Frame rate : 23.976 fps Color space : YUV Chroma subsampling : 4:2:0 Bit depth : 8 bits Scan type : Progressive Bits/(Pixel*Frame) : 0.373 Stream size : 3.99 GiB (77%) Title : CadagotoHD.Com ¡Visítanos! Writing library : x264 core 129 r2230 1cffe9f Encoding settings : cabac=1 / ref=5 / deblock=1:-3:-3 / analyse=0x3:0x113 / me=umh / subme=8 / psy=1 / psy_rd=1.00:0.00 / mixed_ref=1 / me_range=16 / chroma_me=1 / trellis=2 / 8x8dct=1 / cqm=0 / deadzone=21,11 / fast_pskip=1 / chroma_qp_offset=-2 / threads=16 / lookahead_threads=2 / sliced_threads=0 / nr=0 / decimate=1 / interlaced=0 / bluray_compat=0 / constrained_intra=0 / bframes=3 / b_pyramid=2 / b_adapt=1 / b_bias=0 / direct=3 / weightb=1 / open_gop=0 / weightp=2 / keyint=240 / keyint_min=23 / scenecut=40 / intra_refresh=0 / rc_lookahead=50 / rc=abr / mbtree=1 / bitrate=6500 / ratetol=1.0 / qcomp=0.60 / qpmin=0 / qpmax=69 / qpstep=4 / ip_ratio=1.40 / aq=1:1.00 Language : English Default : No Forced : No Audio #1 ID : 2 Format : AC-3 Format/Info : Audio Coding 3 Mode extension : CM (complete main) Format settings, Endianness : Big Codec ID : A_AC3 Duration : 1h 33mn Bit rate mode : Constant Bit rate : 192 Kbps Channel(s) : 2 channels Channel positions : Front: L R Sampling rate : 48.0 KHz Bit depth : 16 bits Compression mode : Lossy Stream size : 128 MiB (2%) Title : CadagotoHD.Com - Audio Español Latino Language : Spanish Default : Yes Forced : Yes Audio #2 ID : 3 Format : DTS Format/Info : Digital Theater Systems Mode : 16 Format settings, Endianness : Big Codec ID : A_DTS Duration : 1h 33mn Bit rate mode : Constant Bit rate : 1 509 Kbps Channel(s) : 6 channels Channel positions : Front: L C R, Side: L R, LFE Sampling rate : 48.0 KHz Bit depth : 24 bits Compression mode : Lossy Delay relative to video : 11ms Stream size : 1 008 MiB (19%) Title : CadagotoHD.Com - Audio Ingles DTS Language : English Default : No Forced : No Text #1 ID : 4 Format : VobSub Muxing mode : zlib Codec ID : S_VOBSUB Codec ID/Info : The same subtitle format used on DVDs Title : Subtitulos Español Language : Spanish Default : No Forced : No Text #2 ID : 5 Format : UTF-8 Codec ID : S_TEXT/UTF8 Codec ID/Info : UTF-8 Plain Text Title : Forzados Language : Spanish Default : Yes Forced : Yes Menu 00:00:00.000 : en:00:00:00.000 00:02:54.383 : en:00:02:54.383 00:05:01.384 : en:00:05:01.384 00:07:54.474 : en:00:07:54.474 00:10:24.833 : en:00:10:24.833 00:16:08.217 : en:00:16:08.217 00:18:55.551 : en:00:18:55.551 00:21:32.583 : en:00:21:32.583 00:23:02.798 : en:00:23:02.798 00:27:06.667 : en:00:27:06.667 00:31:16.833 : en:00:31:16.833 00:36:29.396 : en:00:36:29.396 00:41:27.985 : en:00:41:27.985 00:43:40.743 : en:00:43:40.743 00:50:37.618 : en:00:50:37.618 00:53:56.442 : en:00:53:56.442 00:57:04.171 : en:00:57:04.171 00:59:06.918 : en:00:59:06.918 01:03:11.454 : en:01:03:11.454 01:07:17.075 : en:01:07:17.075 01:09:55.858 : en:01:09:55.858 01:11:51.098 : en:01:11:51.098 01:15:40.911 : en:01:15:40.911 01:18:19.904 : en:01:18:19.904 01:20:55.809 : en:01:20:55.809 01:22:55.262 : en:01:22:55.262 01:25:58.695 : en:01:25:58.695 01:28:26.301 : en:01:28:26.301






Links De 500 Mb!
¡Descargar Los Enlaces AQUI!
>>Enlace para Descargar Amenaza Roja(Red Dawn) BDRip 720p Español LATiNO/Ingles DTS Sub 2012 Bélico 1 Link<<

http://s2l.biz/5d57djmdrwmv
Utiliza los Archivos .REV si tienes problema con 1,2,3 archivos en su descarga , Esté off o corruptos

Si necesitas 2 archivos , Bajas 2 REV y los reconstruirán Cualquiera que fuesen los que te falten !
Amenaza Roja(Red Dawn) BDRip 720p Español LATiNO/Ingles DTS Sub 2012 Bélico
82 Visitas
  • Dar Puntos
  • +1
  • +2
  • +3
  • +4
  • +5
  • +6
  • +7
  • +8
  • +9
  • +10
0 Puntos
Para poder comentar necesitas Registrarte. O ya tienes usuario?, Iniciar Sesión!
No hay comentarios. ¡Sé el primero!
Autor
Ver perfil de adrian22 adrian22
Hombre Colaborador Colaborador  Seguir  Mensaje
1039 43 4
Nuevo Mensaje
Para:
Titulo: